<?xml version="1.0" standalone="no"?>
<!DOCTYPE svg PUBLIC "-//W3C//DTD SVG 1.1//EN" "http://www.w3.org/Graphics/SVG/1.1/DTD/svg11.dtd">
<svg xmlns="http://www.w3.org/2000/svg">
<metadata>Copyright (C) 2022 by original authors @ fontello.com</metadata>
<defs>
<font id="icon-font" horiz-adv-x="1000" >
<font-face font-family="icon-font" font-weight="400" font-stretch="normal" units-per-em="1000" ascent="850" descent="-150" />
<missing-glyph horiz-adv-x="1000" />
<glyph glyph-name="down" unicode="&#xe828;" d="M5 786l864-864 61 0 864 864-62 64-833-832c0 0-832 832-832 832l-62-64z" horiz-adv-x="1818" />

<glyph glyph-name="next-page" unicode="&#xe829;" d="M39 454l356 357c53 52 137 52 189 0 53-52 53-137 0-189l-262-262 262-263c53-52 53-137 0-189-26-26-60-39-94-39-34 0-69 13-95 39l-356 357c-53 52-53 137 0 189z" horiz-adv-x="635" />

<glyph glyph-name="eye" unicode="&#xe82a;" d="M773 813c-427 0-773-463-773-463s346-463 773-463 773 463 773 463-346 463-773 463z m412-700c-116-81-258-150-412-150s-296 69-412 150c-120 83-212 181-261 237 48 56 141 154 261 237 115 81 257 150 411 150s297-69 412-150c120-83 212-181 261-237-48-56-140-154-260-237z m-412 505c-148 0-269-120-269-268s121-267 269-267 269 120 269 267-121 268-269 268z m0-458c-105 0-191 85-191 190s86 191 191 191 191-85 191-191-86-190-191-190z" horiz-adv-x="1545" />

<glyph glyph-name="eyehide" unicode="&#xe82b;" d="M967 850l-964-964 35-35 964 964-35 35z m-167-308c122-86 200-191 200-191 0 0-224-300-500-300-56 0-109 12-159 32l39 39c38-13 78-21 120-21 100 0 192 45 267 97 77 54 137 117 168 153-31 37-91 100-168 154l-3 1 36 36z m-596-384c-124 86-204 193-204 193 0 0 224 300 500 300 57 0 112-13 164-33l-39-39c-40 14-82 22-125 22-100 0-192-44-267-96-77-54-137-117-168-154 31-36 91-99 168-153 2-2 4-3 7-4l-36-36z m461 249c6-18 9-36 9-56 0-95-78-173-174-173-19 0-38 3-55 9l42 42c4-1 9-1 13-1 68 0 124 55 124 123 0 5-1 9-1 14l42 42z m-328-116c-7 19-11 39-11 60 0 96 78 174 174 174 21 0 41-4 60-11l-41-41c-6 1-13 2-19 2-68 0-124-56-124-124 0-6 1-13 2-19l-41-41z" horiz-adv-x="1050" />

<glyph glyph-name="contrast" unicode="&#xe82c;" d="M500 850c-276 0-500-224-500-500s224-500 500-500c4 0 7 0 11 0h2s3 0 3 0h2c2 0 3 0 5 1h1c174 8 325 105 408 248l1 2c3 4 5 9 8 13l0 1 1 1c15 29 28 60 38 93l0 1 1 3 1 3 1 3c2 7 3 14 5 21 0 2 1 4 1 6 5 21 8 43 10 66l0 2c0 6 0 12 1 18 0 6 0 12 0 18 0 276-224 500-500 500z m0-950c-248 0-450 202-450 450s202 450 450 450v-900z" horiz-adv-x="1000" />

<glyph glyph-name="account" unicode="&#xe900;" d="M335 277c-77 53-129 152-129 266 0 171 117 307 259 307 143 0 260-136 260-307 0-107-46-201-116-256v-97c0 0 224-83 224-83 65-24 111-88 111-158v-99h-944c0 0 0 99 0 99 0 70 44 134 110 158 0 0 225 83 225 83v87z m224-20c-29-14-61-21-94-21-27 0-54 5-80 15v-96l-258-95c-46-17-77-62-77-111 0 0 0-49 0-49s844 0 844 0v49c0 49-32 94-79 111l-256 95v102z m116 284c-43-8-80-3-111 14-24 12-45 32-64 59-42-42-114-73-175-73-25 0-48 4-69 11 0-3 0-6 0-9 0-141 92-257 209-257 117 0 209 115 210 255z m-3 50c-19 118-103 209-207 209-100 0-182-85-204-197 20-8 41-12 64-12 59 0 131 34 154 78l21 40 23-40c19-33 40-57 64-70 24-12 51-14 85-8z" horiz-adv-x="950.2" />

<glyph glyph-name="arrow-left" unicode="&#xe901;" d="M133 326h1502v83h-1502l286 392-68 49-351-483 351-483 68 49-286 393z" horiz-adv-x="1667" />

<glyph glyph-name="arrow-right" unicode="&#xe902;" d="M1502 409h-1502v-83h1502l-286-393 68-49 351 483-351 483-68-49 286-392z" horiz-adv-x="1667" />

<glyph glyph-name="audio" unicode="&#xe903;" d="M653 534h-148c-51 0-92-41-92-92v-136c0-50 41-91 92-91h148l310-310c6-7 17-9 26-5s14 12 14 22v904c0 10-5 19-14 22-9 4-20 2-26-5l-310-309z m10-48c6 0 12 2 17 7l276 276v-790l-276 276c-5 5-11 7-17 7h-158c-25 0-44 20-44 44v136c0 24 19 44 44 44h158z m528 141c70-58 127-155 127-253 0-98-57-195-127-253-10-9-12-24-4-34 9-10 24-11 34-3 80 67 144 178 144 290 0 113-64 223-144 290-10 8-25 7-34-3-8-10-6-25 4-34z m-90-114c45-32 81-79 81-139s-36-106-81-139c-10-8-13-23-5-33 8-11 23-13 33-5 57 41 101 101 101 177s-44 136-101 178c-10 7-25 5-33-5-8-11-5-26 5-34z" horiz-adv-x="1778.3" />

<glyph glyph-name="break" unicode="&#xe904;" d="M706 850h-294v-1000h294v1000z m-412-1000v1000h-294v-1000h294z m353 941v-882c0 0-176 0-176 0s0 882 0 882h176z m-412 0v-882c0 0-176 0-176 0s0 882 0 882h176z" horiz-adv-x="706.1" />

<glyph glyph-name="brochure" unicode="&#xe905;" d="M529-119l0-2h59c0 11 6 20 16 29 14 13 35 24 62 33 91 33 241 48 422 48 17 0 30 14 30 30v802c0 16-13 29-30 29-223 0-402-40-489-97-16-10-30-21-40-33-11 12-24 23-40 33-87 57-266 97-490 97-16 0-29-13-29-29v-802c0-16 13-30 29-30 181 0 331-15 422-48 27-9 48-20 63-33 9-8 15-17 15-27z m0 770v-682c-4 3-8 5-12 8-83 45-249 69-458 71 0 0 0 743 0 743 167-3 305-28 390-67 27-12 49-26 63-40 11-11 17-22 17-33z m59-682v682l0 2c1 11 8 21 17 31 15 14 36 28 63 40 86 39 224 64 391 67 0 0 0-743 0-743-209-2-375-26-458-71-5-3-9-5-13-8z m85 150c76 29 184 50 307 58 17 2 29 16 28 32-1 16-15 28-32 27-130-9-244-31-324-62-15-6-23-23-17-38 6-15 23-23 38-17z m-202 55c-80 31-194 53-324 62-16 1-30-11-31-27-1-16 11-30 27-32 124-8 231-29 307-58 16-6 33 2 38 17 6 15-1 32-17 38z m202 91c76 29 184 50 307 58 17 1 29 15 28 32-1 16-15 28-32 27-130-9-244-31-324-62-15-6-23-23-17-38 6-15 23-23 38-17z m-202 55c-80 31-194 53-324 62-16 1-30-11-31-27-1-17 11-31 27-32 124-8 231-29 307-58 16-6 33 2 38 17 6 15-1 32-17 38z m202 91c76 29 184 50 307 58 17 1 29 15 28 31-1 17-15 29-32 28-130-9-244-32-324-62-15-6-23-23-17-38 6-16 23-23 38-17z m-202 55c-80 30-194 53-324 62-16 1-30-11-31-28-1-16 11-30 27-31 124-8 231-29 307-58 16-6 33 1 38 17 6 15-1 32-17 38z m202 90c76 30 184 50 307 59 17 1 29 15 28 31-1 16-15 29-32 28-130-9-244-32-324-63-15-5-23-22-17-38 6-15 23-22 38-17z m-202 55c-80 31-194 54-324 63-16 1-30-12-31-28-1-16 11-30 27-31 124-9 231-29 307-59 16-5 33 2 38 17 6 16-1 33-17 38z" horiz-adv-x="1117.2" />

<glyph glyph-name="calendar" unicode="&#xe906;" d="M800 750h150v-900h-950v900h150v100h200v-100h250v100h200v-100z m100-200h-850v-650c0 0 850 0 850 0v650z m-200-150h150v-50h-150v-100h150v-50h-150v-100h150v-50h-150v-100h-50v100h-150v-100h-50v100h-150v-100h-50v100h-150v50h150v100h-150v50h150v100h-150v50h150v100h50v-100h150v100h50v-100h150v100h50v-100z m-400-200v-100h150v100h-150z m200 0v-100h150v100h-150z m-200 150v-100h150v100h-150z m200 0v-100h150v100h-150z m300 350v-50h-200v50h-250v-50h-200v50h-100v-100h850v100h-100z m-600 100v-100c0 0 100 0 100 0s0 100 0 100h-100z m450 0v-100c0 0 100 0 100 0s0 100 0 100h-100z" horiz-adv-x="950.2" />

<glyph glyph-name="check" unicode="&#xe907;" d="M0 220l369-369h33l965 964-34 34-948-948c0 0-352 352-352 352l-33-33z" horiz-adv-x="1380.9" />

<glyph glyph-name="delete" unicode="&#xe908;" d="M300 750h-300v-50h100v-825c0-14 12-25 25-25h700c14 0 25 11 25 25v825h100v50h-300v100h-350v-100z m-150-50h650c0 0 0-800 0-800s-650 0-650 0v800z m450-150v-504h50v504h-50z m-300 0v-500h50v500h-50z m150 0v-500h50v500h-50z m-100 200v0 50h250c0 0 0-50 0-50s-248 0-250 0z" horiz-adv-x="1000" />

<glyph glyph-name="doc" unicode="&#xe909;" d="M435 850h-435v-1000h750v665c1 3 2 6 2 10s-1 7-2 10v0l0 1c-3 5-7 9-12 12l-303 302z m-35-50v-300h300v-600h-650c0 0 0 900 0 900h350z m265-250l-215 215v-215h215z" horiz-adv-x="799.8" />

<glyph glyph-name="download" unicode="&#xe90a;" d="M900 100v-200c0 0-850 0-850 0s0 200 0 200h-50v-225c0-14 12-25 25-25h900c14 0 25 11 25 25v225h-50z m-720 300h-59l355-361 341 360-167 1c0 0 0 450 0 450h-350v-450c0 0-120 0-120 0z m60-50h110v450c0 0 250 0 250 0s0-450 0-450l102 0c0 0-227-239-227-239s-235 239-235 239z" horiz-adv-x="950.2" />

<glyph glyph-name="facebook" unicode="&#xe90b;" d="M97 641c0 16-1 88 49 143 32 36 87 66 181 66h173v-216c0 0-134 0-134 0-5 0-9-3-13-7-2-2-5-7-5-8v-83h154l-2-27c-7-85-19-162-19-162l-4-21c0 0-130 0-130 0v-476h-250c0 0 0 476 0 476h-97v209c0 0 97 0 97 0v106z m50 0v-156c0 0-97 0-97 0s0-109 0-109h97c0 0 0-476 0-476s150 0 150 0v476c0 0 137 0 137 0 4 23 9 64 14 110h-150c0 0 0 134 0 134 0 12 5 25 15 37 12 15 33 27 53 27 0 0 84 0 84 0s0 116 0 116h-123c-74 0-118-21-144-50-38-41-36-96-36-109z" horiz-adv-x="549.8" />

<glyph glyph-name="fax" unicode="&#xe90c;" d="M450 552v298h334l116-96v-202h34c36 0 66-29 66-66v-519c0-37-30-67-66-67h-536c-2-12-6-21-11-28-13-15-34-22-73-22h-124c-37 0-60 6-73 21-4 4-7 8-9 13v-1h-41c-37 0-67 30-67 66 0 0 0 537 0 537 0 37 30 66 67 66h36c3 12 8 21 14 27 7 9 18 15 33 18v128c0 14 11 25 25 25s25-11 25-25v-125h114c39 0 60-6 73-22 5-6 8-14 11-26h52z m-100-627c0 0 0 600 0 600 0 11 1 18-3 22-1 2-4 2-8 2-7 1-15 1-25 1 0 0-124 0-124 0-9 0-18 0-25-1-5 0-9 0-11-3-4-4-4-11-4-21v-600c0-10 0-16 4-20 2-3 6-3 11-4 7-1 16-1 25-1 0 0 124 0 124 0 10 0 18 0 25 1 4 1 7 0 8 2 4 5 3 12 3 22z m-250 577h-33c-9 0-17-7-17-16v-537c0-9 8-16 17-16h33v569z m300-552h534c9 0 16 8 16 17 0 0 0 519 0 519 0 9-7 16-16 16h-534v-552z m350 150h50v-50h-50v50z m-200 0h50v-50h-50v50z m100 0h50v-50h-50v50z m100 100h50v-50h-50v50z m-200 0h50v-50h-50v50z m100 0h50v-50h-50v50z m100 100h50v-50h-50v50z m-200 0h50v-50h-50v50z m100 0h50v-50h-50v50z m-100 50h250v50h-250v-50z m300 202v179c0 0-84 69-84 69s-266 0-266 0v-248h350z m-300 48h250v50h-250v-50z m0 100h200v50h-200v-50z" horiz-adv-x="1000" />

<glyph glyph-name="gallery" unicode="&#xe90d;" d="M841 549l4 48 109-10-63-691-667 60 4 48c0 0 620-57 620-57s55 597 55 597l-62 5z m-841-508v809h810v-809h-810z m762 142h-714v-95h714v95z m0 64v555c0 0-714 0-714 0v-571h44c0 0 40 97 93 152 26 29 57 47 87 47 39 0 74-18 103-40 18-14 32-28 43-41 0 0 83 141 83 141 14 24 40 39 68 39 30 0 58-17 71-43l122-239z m-45-16l-119 233c-6 11-17 18-29 18-11 0-21-6-27-16l-100-171c-4-7-12-12-20-12-8 0-16 4-20 11 0 0-22 32-56 58-21 16-46 30-74 30-11 0-23-6-33-14-14-10-27-24-39-40-26-35-46-76-56-97h573z m-395 520c-45 0-83-28-98-67-1 0-1 0-1 0-41 0-74-32-74-73 0-41 34-74 75-71 0 0 97 0 97 0 60-3 108 45 108 104 0 59-48 107-107 107z m0-48c33 0 59-26 59-59 0-32-26-58-58-57l-102 0c-14-1-24 11-24 24 0 14 11 26 26 26 3 0 6-1 9-2l27-11 5 29c5 29 29 50 58 50z" horiz-adv-x="1000" />

<glyph glyph-name="instagram" unicode="&#xe90e;" d="M1000 575c0 152-123 275-275 275h-450c-152 0-275-123-275-275v-450c0-152 123-275 275-275h450c152 0 275 123 275 275 0 0 0 450 0 450z m-50 0v-450c0-124-101-225-225-225 0 0-450 0-450 0-124 0-225 101-225 225 0 0 0 450 0 450 0 124 101 225 225 225 0 0 450 0 450 0 124 0 225-101 225-225z m-450 25c-138 0-250-112-250-250s112-250 250-250c138 0 250 112 250 250s-112 250-250 250z m0-50c110 0 200-90 200-200s-90-200-200-200c-110 0-200 90-200 200s90 200 200 200z m250 125c-28 0-50-22-50-50s22-50 50-50c28 0 50 22 50 50s-22 50-50 50z" horiz-adv-x="1000" />

<glyph glyph-name="linkedin" unicode="&#xe90f;" d="M250 470c0 11-2 27-7 36-7 10-16 16-28 16-59 0-121 0-180 0-11 0-21-6-27-16-6-9-8-25-8-35 0-205 0-361 0-566 0 0 0 0 0 0 0-9 4-17 11-23 4-3 9-6 15-8 8-2 18-3 23-3 60 1 107 1 167 1 15 0 22 4 26 8 4 4 8 11 8 26v564z m324-5c23 25 50 45 81 55 0 0 0 0 0 0 68 23 136 19 203-7 0 0 0 0 0 0 55-20 92-76 114-130 14-34 21-69 24-105 0 0 0 0 0 0 2-34 4-68 4-102 0-107 0-163 0-270 0-15-5-22-9-26-3-4-10-8-26-8h-177c-18 0-26 5-31 12-3 4-7 11-7 23 0 108 1 167 0 275 0 0 0 0 0 0 0 24 1 48-7 71 0 0 0 0 0 0-9 26-26 41-54 44 0 0 0 0 0 0-20 2-40 1-59-8-22-10-34-30-40-53-7-23-8-48-8-72v-257c0-16-5-23-9-27-4-4-10-8-26-8h-163c-15 0-21 4-25 8-4 4-9 10-9 25v566c0 9 2 25 7 34 6 11 15 17 27 17 57 0 99 0 156 0 12 0 21-6 27-17 5-9 7-25 7-35v-5z m-374 7c0-1 0-2 0-2v-548h-68c-13 0-27 0-40 0l-42-1c0 198 0 350 0 550l0 1h150z m349-104c-2 0-4 1-7 2-9 2-16 11-17 21-1 3-1 7-1 10 0 23 0 46 0 69 0 0 0 1 0 2h-124v-550l132 0v242c0 29 2 58 10 86 0 0 0 0 0 0 11 38 31 68 68 85 0 0 0 0 0 0 27 12 55 15 85 12 48-6 79-32 95-78 10-28 10-58 10-87 1-103 0-161 0-260h150c0 96 0 152 0 254 0 0 0 0 0 0 0 32-2 65-4 98-2 31-9 62-21 91 0 0 0 0 0 0-16 41-42 86-84 102-56 21-114 24-171 6-41-13-72-51-94-89 0 0 0 0 0 0-2-2-4-5-6-7-4-6-11-9-19-9l-2 0z m-409 482c-77 0-139-61-140-138 0 0 0 0 0 0 0-77 61-140 138-140 0 0 0 0 0 0 77-1 140 61 140 138 1 77-61 140-138 140v0z m-1-50c0 0 0 0 0 0 50 0 90-41 89-90 0 0 0 0 0 0 0-49-40-89-90-88-49 0-88 40-88 89 1 50 40 89 89 89z" horiz-adv-x="1049.8" />

<glyph glyph-name="list" unicode="&#xe910;" d="M250-25c0 69-56 125-125 125s-125-56-125-125c0-69 56-125 125-125s125 56 125 125z m-63 0c0-35-28-63-62-63s-63 28-63 63c0 35 28 63 63 63s62-28 62-63z m250 0h813v63h-813v-63z m-187 375c0 69-56 125-125 125s-125-56-125-125c0-69 56-125 125-125s125 56 125 125z m-63 0c0-34-28-62-62-62s-63 28-63 62c0 35 28 63 63 63s62-28 62-63z m250 0h813v63h-813v-63z m-187 375c0 69-56 125-125 125s-125-56-125-125c0-69 56-125 125-125s125 56 125 125z m-63 0c0-34-28-62-62-62s-63 28-63 62c0 35 28 63 63 63s62-28 62-63z m250 0h813v63h-813v-63z" horiz-adv-x="1250" />

<glyph glyph-name="logout" unicode="&#xe911;" d="M600 50v-150c0 0-550 0-550 0s0 900 0 900c0 0 550 0 550 0s0-150 0-150h50v200h-650v-1000h650v200h-50z m315 299h-715v-50h715l-184-183 36-36 243 244-243 244-36-35 184-184z" horiz-adv-x="1049.8" />

<glyph glyph-name="mail" unicode="&#xe912;" d="M1429 15c0-92-72-165-162-165 0 0-1110 0-1110 0-91 0-157 72-157 165v670c0 49 17 90 45 119 28 29 68 46 116 46 0 0 1106 0 1106 0 49 0 89-17 117-46 28-29 45-70 45-119v-670z m-1351 710c-4-12-7-25-7-40 0 0 0-670 0-670 0-52 35-94 86-94h1110c51 0 90 42 90 94 0 0 0 670 0 670 0 14-2 27-6 38l-589-478c-13-11-31-11-44-1l-640 481z m1222 49c-10 3-21 4-33 4h-1106c-10 0-21-1-30-4l608-456 561 456z" horiz-adv-x="1428.7" />

<glyph glyph-name="map" unicode="&#xe913;" d="M705 497c0 195-158 353-352 353-195 0-353-158-353-353 0-57 30-139 73-225 98-194 260-412 260-412 4-6 12-10 20-10 8 0 15 4 20 10 0 0 162 218 259 412 43 86 73 168 73 225z m-50 0c0-51-29-124-68-203-75-149-189-313-234-376-46 63-160 227-235 376-39 79-68 152-68 203 0 168 136 303 303 303 167 0 302-135 302-303z m-146 0c0 87-70 157-156 157-87 0-156-70-156-157 0-86 69-156 156-156 86 0 156 70 156 156z m-50 0c0-58-48-106-106-106s-106 48-106 106c0 59 47 107 106 107s106-48 106-107z" horiz-adv-x="750" />

<glyph glyph-name="media" unicode="&#xe914;" d="M0-150v1000h1000v-1000h-1000z m950 201h-900v-151h900v151z m-900 50h73c16 34 55 115 106 169 32 34 69 56 106 56 47 0 90-22 125-49 24-18 44-39 58-55 0 0 106 181 106 181 17 29 48 47 81 47 36 0 68-20 84-52l152-297h9v699c0 0-900 0-900 0v-699z m835 0l-140 275c-8 15-23 24-40 24-16 0-30-8-38-22l-125-213c-4-8-12-13-21-13-8 0-16 4-21 11 0 0-28 42-70 75-27 20-59 38-95 38-16 0-31-7-45-18-17-13-34-31-48-51-28-36-50-78-63-106h706z m-488 625c-55 0-101-34-120-83-1 0-3 1-4 1-48 0-87-39-87-87 0-49 40-88 88-85 0 0 122 0 122 0 71-3 129 55 129 126 0 71-57 128-128 128z m0-50c43 0 78-35 78-78 0-43-34-78-77-76l-127 0c-20-1-35 15-35 35 0 20 16 37 37 37 5 0 9-1 13-3l29-11 5 30c6 38 38 66 77 66z" horiz-adv-x="1000" />

<glyph glyph-name="messages" unicode="&#xe915;" d="M511 850h-406v-105h-105v-895h684v105h106v617l-279 278z m-406-158v-737h527v-52c0 0-579 0-579 0s0 789 0 789h52z m369 105v-263h263v-526h-579c0 0 0 789 0 789h316z m52-210v173l174-173h-174z" horiz-adv-x="789.1" />

<glyph glyph-name="music" unicode="&#xe916;" d="M286 465l381 150v-285h-88c-79 0-150-65-150-144 0-79 71-141 150-141 81 0 135 62 135 134v671l-476-194v-484h-103c-80 0-135-64-135-144 0-81 55-142 135-142 79 0 151 63 151 135v444z m-48-444c0-48-50-88-103-88-53 0-87 42-87 95 0 52 34 96 87 96 0 0 103 0 103 0s0-103 0-103z m429 262v-104c0-47-36-87-88-87-53 0-103 41-103 94 0 54 50 97 103 97h88z m0 383v113c0 0-381-155-381-155v-107l381 149z" horiz-adv-x="713.9" />

<glyph glyph-name="newsletter" unicode="&#xe917;" d="M1019 849l-1-1c-1 0-1 0-2 0l-1000-412c-10-4-16-14-16-25 0-10 7-20 17-24l365-148v-325c0-12 8-22 20-25 11-4 23 1 29 11l144 239 261-140c7-4 16-4 24-1 7 4 13 10 14 18l178 803 0 1 1 1 0 1 0 1v0c0 1 0 2 0 3l-1 1 0 1c0 3-1 6-3 8l0 1-1 2-1 1 0 0-1 1c-2 2-5 5-8 6l-1 1-1 0c-2 1-3 1-5 1l-1 1-1 0c-4 0-7 0-10-1z m-584-840l93 154-93 50v-204z m548 739l-153-686c0 0-376 201-376 201l529 485z m-84-5l-496-455c0 0-307 124-307 124l803 331z" horiz-adv-x="1105.5" />

<glyph glyph-name="next" unicode="&#xe918;" d="M0-79c0-9 6-17 14-21 9-4 19-3 26 4l314 279c0 0 0-222 0-222 0-9 5-18 13-22 8-4 18-3 25 3l551 413c6 4 9 11 9 19s-3 14-9 19l-551 413c-7 5-17 6-25 2-8-4-13-12-13-21v-222c0 0-314 279-314 279-7 6-17 8-26 4-8-4-14-12-14-22v-905z m48 53v799c0 0 314-279 314-279 7-6 17-8 26-4 8 4 14 12 14 22v227c0 0 487-365 487-365s-487-366-487-366c0 0 0 228 0 228 0 10-6 18-14 22-9 4-19 2-26-4l-314-280z" horiz-adv-x="952.1" />

<glyph glyph-name="phone" unicode="&#xe919;" d="M390 531c0 0 0 0 0 0 49 49 49 129 0 179 0 0-103 103-103 103-50 49-130 49-179 0l-57-57c-59-59-68-151-22-220 0 0 0 0 0 0 167-252 389-474 640-641 0 0 0 0 0 0 70-45 162-36 221 23 0 0 56 56 56 56 50 50 50 130 0 179 0 0-103 104-103 104-49 49-129 49-179 0l-15-16c-98 82-192 177-274 274 0 0 15 16 15 16z m-42 41l-34-34c-11-11-12-28-2-40 94-114 205-225 320-320 12-9 29-8 39 2l35 35c26 26 69 26 96 0 0 0 103-103 103-103 26-27 26-70 0-96l-57-57c-39-39-100-45-146-14-245 162-462 378-624 623-30 46-24 108 15 147 0 0 56 56 56 56 27 27 70 27 96 0 0 0 103-103 103-103 27-26 27-69 0-96v0z" horiz-adv-x="1000" />

<glyph glyph-name="play" unicode="&#xe91a;" d="M48 850l-48-23v-941l48-23 588 471v45l-588 471z m11-84l512-409c0 0-512-410-512-410v819z" horiz-adv-x="647.5" />

<glyph glyph-name="prev" unicode="&#xe91b;" d="M913-96c7-7 17-8 25-4 9 4 14 12 14 21v905c0 10-5 18-14 22-8 4-18 2-25-4l-315-279c0 0 0 222 0 222 0 9-5 17-13 21-8 4-18 3-25-2l-550-413c-6-5-10-12-10-19s4-15 10-19l550-413c7-6 17-7 25-3 8 4 13 13 13 22v222c0 0 315-279 315-279z m-8 70l-315 280c-7 6-17 8-25 4-9-4-14-12-14-22v-228c0 0-487 366-487 366s487 365 487 365c0 0 0-227 0-227 0-10 5-18 14-22 8-4 18-2 25 4l315 279v-799z" horiz-adv-x="952.1" />

<glyph glyph-name="print" unicode="&#xe91c;" d="M200 600v225c0 14 11 25 25 25h450c7 0 13-3 18-7l100-100c4-5 7-11 7-18v-125h75c28 0 60-15 84-39 25-23 41-55 41-83 0 0 0-253 0-253 0-29-16-60-40-85-25-24-56-40-85-40h-75v-225c0-14-11-25-25-25h-550c-14 0-25 11-25 25v225h-75c-29 0-60 16-85 40-24 25-40 56-40 85v253c0 28 16 60 41 83 24 24 56 39 84 39h75z m50-350v-350c0 0 500 0 500 0s0 350 0 350h-500z m50-300v50h400v-50h-400z m0 100v50h400v-50h-400z m500 100h75c17 0 35 11 49 26s26 32 26 49v253c0 16-11 34-25 47-15 14-33 25-50 25 0 0-750 0-750 0-17 0-35-11-50-25-14-13-25-31-25-47 0 0 0-253 0-253 0-17 11-35 26-49s32-26 49-26h75v125c0 14 11 25 25 25h550c14 0 25-11 25-25v-125z m-500 0v50h400v-50h-400z m-59 275c0-37-29-66-66-66s-66 29-66 66c0 37 29 66 66 66s66-29 66-66z m-50 0c0-9-7-16-16-16s-16 7-16 16c0 9 7 16 16 16s16-7 16-16z m59 175h500v115c0 0-85 85-85 85h-15v-100h99v-50h-124c-14 0-25 11-25 25v125h-350v-200z" horiz-adv-x="1000" />

<glyph glyph-name="publication" unicode="&#xe91d;" d="M625 850c4 0 8-1 12-3 3 2 7 3 12 3h126c14 0 25-11 25-25v-950c0-14-11-25-25-25h-717c-32 0-58 26-58 57v885c0 32 26 58 58 58h567z m25-50v-434c0-9-5-18-14-22-9-5-19-3-27 3 0 0-84 69-84 69l-84-69c-8-6-18-8-27-3-8 4-14 13-14 22v434h-200v-900h550c0 0 0 900 0 900h-100z m-500-900v900h-92c-4 0-8-4-8-8 0 0 0-885 0-885 0-4 4-7 8-7h92z m341 900h-41v-381l59 48c9 8 23 8 32 0l59-48v381h-109z" horiz-adv-x="799.8" />

<glyph glyph-name="read" unicode="&#xe91e;" d="M51 528l452 317c9 6 21 6 30 0l418-317c4-1 9-3 13-6 22-20 36-51 36-88 0 0 0-469 0-469 0-64-50-115-113-115h-777c-64 0-110 50-110 115v469c0 37 14 68 36 88 4 4 10 6 15 6z m4-66c-3-8-5-17-5-28 0 0 0-469 0-469 0-36 24-65 60-65 0 0 777 0 777 0 35 0 63 29 63 65v469c0 10-1 19-4 27l-413-335c-9-7-21-7-30 0l-448 336z m37 34l425-319 393 319-393 298-425-298z" horiz-adv-x="1000" />

<glyph glyph-name="rss" unicode="&#xe91f;" d="M25 800c510 0 925-414 925-925 0-14 11-25 25-25s25 11 25 25c0 538-437 975-975 975-14 0-25-11-25-25s11-25 25-25z m119-662c-80 0-144-65-144-144s64-144 144-144c79 0 143 64 143 144s-64 144-143 144z m-119 187c248 0 450-202 450-450 0-14 11-25 25-25s25 11 25 25c0 276-224 500-500 500-14 0-25-11-25-25s11-25 25-25z m0 238c379 0 687-308 687-688 0-14 12-25 25-25s25 11 25 25c0 407-330 738-737 738-14 0-25-12-25-25s11-25 25-25z m119-475c51 0 93-42 93-94s-42-94-93-94c-52 0-94 42-94 94s42 94 94 94z" horiz-adv-x="1000" />

<glyph glyph-name="search" unicode="&#xe920;" d="M584 231l373-374 36 36-374 373c54 62 86 143 86 231 0 195-158 353-352 353-195 0-353-158-353-353 0-194 158-352 353-352 88 0 169 32 231 86z m71 266c0-167-135-302-302-302-168 0-303 135-303 302 0 168 135 303 303 303 167 0 302-135 302-303z" horiz-adv-x="1000" />

<glyph glyph-name="share" unicode="&#xe921;" d="M631 606l-289-146c-34 48-90 79-153 79-104 0-189-85-189-189s85-189 189-189c62 0 118 30 152 77l294-132c-8-21-13-43-13-67 0-105 85-189 189-189s189 84 189 189c0 104-85 188-189 188-62 0-118-30-152-77l-294 132c8 21 13 44 13 68 0 23-5 46-12 66l285 145c34-53 93-89 160-89 104 0 189 85 189 189s-85 189-189 189c-104 0-189-85-189-189 0-19 3-38 9-55z m319-567c0-77-62-139-139-139s-139 62-139 139c0 76 63 138 139 138s139-62 139-138z m-622 311c0-77-63-139-139-139s-139 62-139 139c0 77 62 139 139 139s139-62 139-139z m622 311c0-77-62-139-139-139s-139 62-139 139c0 77 63 139 139 139s139-62 139-139z" horiz-adv-x="1000" />

<glyph glyph-name="time" unicode="&#xe922;" d="M1000 350c0 276-224 500-500 500s-500-224-500-500c0-276 224-500 500-500s500 224 500 500z m-50 0c0-248-202-450-450-450s-450 202-450 450c0 248 202 450 450 450s450-202 450-450z m-500 300v-300c0-7 3-14 8-18l248-228 34 37-240 220c0 0 0 289 0 289h-50z" horiz-adv-x="1000" />

<glyph glyph-name="twitter" unicode="&#xe923;" d="M84 529c-7 3-16 2-24-2-9-5-14-14-15-24 0-2 0-3 0-5 0-81 38-154 97-202-3-1-7-4-9-7-7-8-9-19-6-28 25-79 86-141 164-167-61-33-132-52-207-52-17 0-34 1-51 3-14 1-27-7-31-20s0-27 12-35c106-68 232-107 367-107 441 0 682 365 682 682 0 5 0 10 0 15 42 33 79 72 109 117 7 11 6 25-2 35-9 10-23 13-35 8-7-3-14-6-21-9 13 20 23 41 30 64 4 12 0 24-9 32-10 7-23 8-34 2-37-22-78-39-121-49-46 44-108 70-177 70-143 0-259-116-259-259 0-6 1-13 1-20-167 18-314 103-415 226-6 8-15 12-25 11-10-1-18-6-23-15-22-38-35-82-35-130 0-49 14-95 37-134z m64-542c90 11 171 47 239 100 10 8 14 21 10 33-4 11-15 19-28 20-70 1-132 39-167 96 22 0 44 4 64 9 13 4 22 16 22 29-1 14-11 26-24 28-77 16-138 76-156 153 22-7 45-11 69-12 13 0 25 8 29 21s-1 26-11 33c-54 36-89 97-89 166 0 22 3 42 9 62 117-125 281-206 463-215 10-1 19 3 24 10s9 17 6 26c-3 14-5 30-5 45 0 111 90 200 200 200 58 0 110-24 146-63 7-7 17-11 27-9 24 5 46 11 68 19-13-14-27-26-44-36-12-7-17-21-12-34 4-14 17-22 31-20 13 1 27 4 40 6-14-13-28-25-44-36-8-6-12-15-12-25 1-9 1-19 1-28 0-290-220-623-623-623-82 0-161 16-233 45z" horiz-adv-x="1235.4" />

<glyph glyph-name="video" unicode="&#xe924;" d="M1333-150v1000h-1333v-1000h1333z m-466 200v-133h-400v133h-67v-133h-333v133h800z m66 0h334c0 0 0-133 0-133h-334v133h0z m334 67h-1200v466h1200c0 0 0-466 0-466z m-800 94c0-11 5-22 15-28s21-7 32-2l303 137c12 6 19 18 19 31s-7 25-19 30l-303 138c-11 4-23 3-32-3s-15-16-15-28v-275z m66 52v172c0 0 189-86 189-86l-189-86z m334 520v-133h-400v133h-67v-133h-333v133h800z m66 0h334c0 0 0-133 0-133h-334v133h0z" horiz-adv-x="1333" />

<glyph glyph-name="web" unicode="&#xe925;" d="M1000 350c0-277-225-502-501-502-277 0-499 234-499 511 0 270 212 478 478 489 8 0 15 1 22 1 277 0 500-221 500-499z m-378-253h-244c28-66 66-133 114-198 2-1 4-1 7-1 3 0 6 1 9 1 48 65 86 132 114 198z m-299 0h-193c68-100 174-172 297-193-44 64-78 129-104 193z m549 0l-195 0c-5-11-9-22-14-33-10-23-21-45-33-67-17-32-36-62-56-92l-1 0c125 20 232 92 299 192z m-603 252h-219c2-72 20-141 51-202h204c-22 68-34 135-36 202z m412 0h-362c3-67 16-134 39-202h284c23 68 36 135 39 202z m269 0h-218c-3-67-15-134-37-202h207c30 61 48 129 48 202z m-641 250h-188c-38-58-63-126-69-200h217c2 68 16 135 40 200z m328 0h-274c-26-65-40-132-43-200h361c-3 68-18 135-44 200z m238 0h-184c24-65 38-132 41-200h215c-7 73-33 141-72 200z m-455 193c-104-18-195-69-261-143h171c24 49 53 97 90 143z m71 6c-43-47-78-97-105-149h228c-27 52-62 102-105 149-3 1-6 1-9 1l-9-1z m90-7c36-45 66-93 89-142h167c-66 73-155 124-256 142z" horiz-adv-x="1000" />

<glyph glyph-name="xing" unicode="&#xe926;" d="M957 813c5 7 5 17 0 24-4 8-12 13-21 13h-207c-9 0-17-5-22-13l-328-583c-5-8-5-17 0-25l205-367c5-7 13-12 22-12h207c9 0 17 4 21 12 5 8 5 17 0 25l-198 354c0 0 321 572 321 572z m-64-13l-308-546c-4-8-4-17 0-25l185-329c0 0-149 0-149 0s-192 341-192 341c0 0 315 559 315 559h149z m-802-150c-21-5-27-18-23-38l88-159c0 0-152-266-152-266-5-8-4-17 0-25 2-4 6-7 9-9 4-2 16-5 16-5 0 0 204 0 204 0 9 0 17 5 22 12l160 280c4 8 4 17 0 25l-95 172c-4 8-13 13-22 13h-207z m41-50h151l81-147-146-255h-150l138 242c5 8 5 17 1 25l-75 135z" horiz-adv-x="1000" />

<glyph glyph-name="youtube" unicode="&#xe927;" d="M1250 619c0 128-94 231-209 231 0 0-832 0-832 0-114 0-209-103-209-231v-538c0-128 95-231 209-231h832c115 0 209 103 209 231 0 0 0 538 0 538z m-62 0v-538c0-92-64-169-147-169 0 0-832 0-832 0-82 0-147 77-147 169 0 0 0 538 0 538 0 92 65 168 147 168h832c83 0 147-76 147-168z m-688 74v-634l396 316-396 318z m62-504v374c0 0 234-188 234-188l-234-186z" horiz-adv-x="1250" />
</font>
</defs>
</svg>
